PDA

Xem bản đầy đủ : [Music Video] [Video HD]Ngắm Một Vì Sao - Khánh Phương - Mediafire



aicudung
24-02-2011, 22:43
[Chỉ thành viên TAICHINH2A.COM mới thấy link, vui lòng đăng ký để tiếp tục]
[Chỉ thành viên TAICHINH2A.COM mới thấy link, vui lòng đăng ký để tiếp tục]

Format : MPEG-4
Format profile : Base Media / Version 2
Codec ID : mp42
File size : 79.2 MiB
Duration : 4mn 14s
Overall bit rate : 2 612 Kbps
Encoded date : UTC 2011-01-22 0202
Tagged date : UTC 2011-01-22 0202
gsst : 0
gstd : 254430
gssd : B71ABFD45HH1297905401966535
gshh : v2.lscache5.c.youtube.com

Video
ID : 1
Format : AVC
Format/Info : Advanced Video Codec
[Chỉ thành viên TAICHINH2A.COM mới thấy link, vui lòng đăng ký để tiếp tục]
Format settings, CABAC : Yes
Format settings, ReFrames : 1 frame
Codec ID : avc1
Codec ID/Info : Advanced Video Coding
Duration : 4mn 14s
Bit rate mode : Variable
Bit rate : 2 478 Kbps
Maximum bit rate : 6 755 Kbps
Width : 1 280 pixels
Height : 720 pixels
Display aspect ratio : 16:9
Frame rate mode : Variable
Frame rate : 29.970 fps
Minimum frame rate : 29.412 fps
Maximum frame rate : 200.000 fps
Color space : YUV
Chroma subsampling : 40
Bit depth : 8 bits
Scan type : Progressive
Bits/(Pixel*Frame) : 0.090
Stream size : 75.2 MiB (95%)
Tagged date : UTC 2011-01-22 0209

Audio
ID : 2
Format : AAC
Format/Info : Advanced Audio Codec
Format profile : LC
Codec ID : 40
Duration : 4mn 14s
Bit rate mode : Variable
Bit rate : 128 Kbps
Maximum bit rate : 148 Kbps
Channel(s) : 2 channels
Channel positions : Front: L R
Sampling rate : 44.1 KHz
Compression mode : Lossy
Stream size : 3.88 MiB (5%)
Title : (C) 2007 Google Inc. v08.13.2007.
Encoded date : UTC 2011-01-22 0206
Tagged date : UTC 2011-01-22 0209




[Chỉ thành viên TAICHINH2A.COM mới thấy link, vui lòng đăng ký để tiếp tục]

[Chỉ thành viên TAICHINH2A.COM mới thấy link, vui lòng đăng ký để tiếp tục]

Pass(nếu có): truyenky.vn